randybobandy

Active members
  • Content Count

    8
  • Joined

  • Last visited

  • Points

    54 [ Donate ]

Community Reputation

2 Neutral

About randybobandy

  • Rank
    NGR N00bMuffin
  1. randybobandy

    mega Return Fire (Ntsc-J) (Unreleased) (iso)

    The .cue file is incorrect for this game, but I managed to fix it. I assume since Return Fire was never officially released for the Saturn, it's licensed musical score was cut from the final product. So I think the .cue file had extra tracks that was looking for the music or something similar. I deleted a few lines from the .cue file and it works now.
  2. randybobandy

    Fade To Black

    I can't seem to find "Fade to Black". It's an unlicensed port of a PS1 and MSDOS game. Thanks!
  3. randybobandy

    mega Return Fire (Ntsc-J) (Unreleased) (iso)

    I'm having problems with the .cue sheet when I'm trying to burn with imgburn. After I select the .cue sheet and press the "Write" icon, I get an error that says: "Failed to send Cue sheet! Reason: Invalid Field in Parameter list. Operation Failed!" This is what the .Cue sheet looks like: FILE "RFIRE.BIN" BINARY TRACK 01 MODE1/2048 INDEX 01 00:00:00 TRACK 02 AUDIO PREGAP 00:02:00 INDEX 01 09:28:00 TRACK 03 AUDIO INDEX 00 09:32:00 INDEX 01 09:34:00 TRACK 04 AUDIO INDEX 00 09:50:35 INDEX 01 09:52:35 TRACK 05 AUDIO INDEX 00 16:53:05 INDEX 01 16:55:05 TRACK 06 AUDIO INDEX 00 19:47:10 INDEX 01 19:49:10 TRACK 07 AUDIO INDEX 00 25:33:41 INDEX 01 25:35:41 TRACK 08 AUDIO INDEX 00 25:44:53 INDEX 01 25:46:53 TRACK 09 AUDIO INDEX 00 26:15:56 INDEX 01 26:17:56 TRACK 10 AUDIO INDEX 00 31:24:47 INDEX 01 31:26:47 TRACK 11 AUDIO INDEX 00 33:22:40 INDEX 01 33:24:40 TRACK 12 AUDIO INDEX 00 33:28:40 INDEX 01 33:30:40 TRACK 13 AUDIO INDEX 00 33:42:58 INDEX 01 33:44:58 TRACK 14 AUDIO INDEX 00 35:06:29 INDEX 01 35:08:29 TRACK 15 AUDIO INDEX 00 35:15:09 INDEX 01 35:17:09 TRACK 16 AUDIO INDEX 00 38:40:48 INDEX 01 38:42:48 TRACK 17 AUDIO INDEX 00 38:51:16 INDEX 01 38:53:16 TRACK 18 AUDIO INDEX 00 41:31:71 INDEX 01 41:33:71 TRACK 19 AUDIO INDEX 00 41:39:57 INDEX 01 41:41:57 TRACK 20 AUDIO INDEX 00 42:10:07 INDEX 01 42:12:07 Any help is greatly appreciated! Thanks!
  4. randybobandy

    mega Return Fire (Ntsc-J) (Unreleased) (iso)

    Thank you!!
  5. randybobandy

    Return Fire

    Thanks man! Appreciate it!
  6. randybobandy

    Return Fire

    I can't find a working copy of this game. Please help!
  7. randybobandy

    Thunder Force Saturn

    https://the-eye.eu/public/rom/Sega Saturn/Darkwater/Japan/ This is a great site for Roms for many consoles. Thunderforce V is definitely there, and all the games work!
  8. randybobandy

    mega.nz Elevator Action² Returns [NTSC-J]

    gameplay looks fun!